Jump to content

rodzynkiwczekoladzie

Użytkownik
  • Posts

    2
  • Joined

  • Last visited

rodzynkiwczekoladzie's Achievements

Newbie

Newbie (1/14)

0

Reputation

  1. Witam! Zrezygnowałem z netbooków- za mało wydajne są do moich potrzeb. Za to laptop 13 calowy jest dla mnie wystarczająco mały. Maksymalny koszt to: 2700 zł pierwszym na mojej liście jest laptop z tej aukcji: Laptop Asus UL30VT SU2300 3GB 320GB GF210 HDMI 12H (1167516732) - Aukcje internetowe Allegro Prosiłbym o odpowiedzenie czy procek i karta spełniają moje poniższe wymagania. Będę go używać bardzo uniwersalnie, w domu jako stacjonarny po podłączeniu z monitorem 21 cali, czasami pod projektor. Równocześnie od czasu do czasu będę brał go na prezentacje, bateria chciałbym żeby trzymała przynajmniej 4 godziny. Filmy oglądać chcę też w HD, czyli 720p - 1020p - procek i grafa muszą spełniać te wymagania. Gram tylko w jedną gierkę - DotA, na obecnym moim stacjonarnym P4 2.4 i karcie GF6600 256, 1GB RAM, całość hula bez problemów. Dysk to minimum 160 GB ale mile widziane 320 i więcej. Jednak nade wszystko zależy mi na cichości pracy, jestem w stanie dołożyć nawet 500 zł jeśli miałbybyć za to cichszy. No i bezawaryjność, to chyba każdy by chciał :) Windowsa nie musi mieć, mam XP Home kupionego jakieś 5 lat temu, po co mi drugi? pozdrawiam i i liczę chociaż na wskazówki.
  2. Witam! Bardzo prosiłbym o wyjaśnienie co znaczy log w EAC. Dokładniej chodzi mi o "Selected bitrate 192 kBit/s". Znaczy to tyle że ktoś przerobił mp3 192 kbit/s na FLAC? Z góry dziękuje! Exact Audio Copy V0.99 prebeta 4 from 23. January 2008 EAC extraction logfile from 4. December 2009, 8:33 Various / Best of Chill Out Lounge Used drive : PIONEER DVD-RW DVR-112D Adapter: 1 ID: 0 Read mode : Secure Utilize accurate stream : Yes Defeat audio cache : Yes Make use of C2 pointers : No Read offset correction : 48 Overread into Lead-In and Lead-Out : No Fill up missing offset samples with silence : Yes Delete leading and trailing silent blocks : No Null samples used in CRC calculations : Yes Used interface : Installed external ASPI interface Used output format : User Defined Encoder Selected bitrate : 192 kBit/s Quality : Low Add ID3 tag : Yes Command line compressor : C:\Program Files\E A C Audio\Flac\flac.exe Additional command line options : -V -8 -T "artist=%a" -T "title=%t" -T "album=%g" -T "date=%y" -T "tracknumber=%n" -T "genre=%m" %s TOC of the extracted CD Track | Start | Length | Start sector | End sector --------------------------------------------------------- 1 | 0:00.00 | 5:57.66 | 0 | 26840 2 | 5:57.66 | 4:06.22 | 26841 | 45312 3 | 10:04.13 | 5:07.14 | 45313 | 68351 4 | 15:11.27 | 5:09.32 | 68352 | 91558 5 | 20:20.59 | 9:14.72 | 91559 | 133180 6 | 29:35.56 | 6:53.31 | 133181 | 164186 7 | 36:29.12 | 3:13.00 | 164187 | 178661 8 | 39:42.12 | 7:07.51 | 178662 | 210737 9 | 46:49.63 | 5:58.01 | 210738 | 237588 10 | 52:47.64 | 4:20.17 | 237589 | 257105 Range status and errors Selected range Filename G:\tvixhd1\lossless-room.moole.ru\_Various - Best of Chill Out Lounge\Various - Best of Chill Out Lounge.wav Peak level 97.7 % Range quality 99.9 % Test CRC CF641C45 Copy CRC CF641C45 Copy OK No errors occurred AccurateRip summary Track 1 not present in database Track 2 not present in database Track 3 not present in database Track 4 not present in database Track 5 not present in database Track 6 not present in database Track 7 not present in database Track 8 not present in database Track 9 not present in database Track 10 not present in database None of the tracks are present in the AccurateRip database End of status report
×
×
  • Create New...

Important Information

We have placed cookies on your device to help make this website better. You can adjust your cookie settings, otherwise we'll assume you're okay to continue.